Dieses Forum nutzt Cookies
Dieses Forum verwendet Cookies, um Ihre Login-Informationen zu speichern, wenn Sie registriert sind, und Ihren letzten Besuch, wenn Sie es nicht sind. Cookies sind kleine Textdokumente, die auf Ihrem Computer gespeichert sind; Die von diesem Forum gesetzten Cookies dürfen nur auf dieser Website verwendet werden und stellen kein Sicherheitsrisiko dar. Cookies auf diesem Forum speichern auch die spezifischen Themen, die Sie gelesen haben und wann Sie zum letzten Mal gelesen haben. Bitte bestätigen Sie, ob Sie diese Cookies akzeptieren oder ablehnen.

Ein Cookie wird in Ihrem Browser unabhängig von der Wahl gespeichert, um zu verhindern, dassIhnen diese Frage erneut gestellt wird. Sie können Ihre Cookie-Einstellungen jederzeit über den Link in der Fußzeile ändern.

Themabewertung:
  • 0 Bewertung(en) - 0 im Durchschnitt
  • 1
  • 2
  • 3
  • 4
  • 5
Kein Sound bei Schicksalsklinge unter Vista
#41
Danke Rabenaas!
Bin grade nicht an meinem PC tätig, probiere es aber alsbald als möglich. Kriegst jetzt schonmal für deine Geduld eine positive Bewertung von mir ;).
Zitieren
#42
Hallo Rabenaas!
Ich hab sie geöffnet und wie folgt zeigt die cue folgendes:
FILE "DSA1-Schicksalsklinge.iso" BINARY
TRACK 01 MODE1/2048
INDEX 01 00:00:00
FILE "Track02.mp3" MP3
TRACK 02 AUDIO
INDEX 01 00:00:00
FILE "Track03.mp3" MP3
TRACK 03 AUDIO
INDEX 01 00:00:00
FILE "Track04.mp3" MP3
TRACK 04 AUDIO
INDEX 01 00:00:00
FILE "Track05.mp3" MP3
TRACK 05 AUDIO
INDEX 01 00:00:00
FILE "Track06.mp3" MP3
TRACK 06 AUDIO
INDEX 01 00:00:00
FILE "Track07.mp3" MP3
TRACK 07 AUDIO
INDEX 01 00:00:00
FILE "Track08.mp3" MP3
TRACK 08 AUDIO
INDEX 01 00:00:00
FILE "Track09.mp3" MP3
TRACK 09 AUDIO
INDEX 01 00:00:00
FILE "Track10.mp3" MP3
TRACK 10 AUDIO
INDEX 01 00:00:00
FILE "Track11.mp3" MP3
TRACK 11 AUDIO
INDEX 01 00:00:00
FILE "Track12.mp3" MP3
TRACK 12 AUDIO
INDEX 01 00:00:00
FILE "Track13.mp3" MP3
TRACK 13 AUDIO
INDEX 01 00:00:00
FILE "Track14.mp3" MP3
TRACK 14 AUDIO
INDEX 01 00:00:00
FILE "Track15.mp3" MP3
TRACK 15 AUDIO
INDEX 01 00:00:00

Ich habe nun auch noch eine .iso gefunden. Die Tracks sind einzeln vorhanden. Wo muss ich die hinkopieren bzw. wie?
Gruß und Dank Hirnkästchen
Zitieren
#43
Ah das Programm, das Du verwendet hast war schlau und hat die Musik gleich komprimiert. In dem Fall sollten eigentlich ISO+MP3s statt einem BIN eigentlich reichen.
Leider hat DosBox aber einen Bug, so dass keine MP3 abgespielt werden können. Diese müssen nach OGG umkodiert werden. Das geht z.B. recht einfach mit BeSweet.

Das CUE muss dann z.B. so geändert werden:
Code:
FILE "Track02.ogg" MP3
und die Dateien müssen alle im selben Verzeichnis wie das CUE liegen.

Die Konfiguration mit OGG verwende ich übrigens auch. Und danke für die Bewertung. :)
Zitieren
#44
Hallo Rabenaas!
Ich habs geändert, nur jetzt mag er die .cue nicht mehr. Ich hab sie via Texteditor umgeschrieben, nur er kann sie nicht mehr öffnen!
Danke für die OGG Konversationsmöglichkeit :D. Und gratis auch noch!
Zitieren
#45
Was sagt er denn zur CUE? Hier z.B. ist meine. Die Vielleicht stimmt ein Dateiname nicht? Am besten postest Du Deine CUE hier.
Zitieren
#46
FILE "DSA1-Schicksalsklinge.iso" BINARY
TRACK 01 MODE1/2048
INDEX 01 00:00:00
FILE "Track02.ogg" MP3
TRACK 02 AUDIO
INDEX 01 00:00:00
FILE "Track03.ogg" MP3
TRACK 03 AUDIO
INDEX 01 00:00:00
FILE "Track04.ogg" MP3
TRACK 04 AUDIO
INDEX 01 00:00:00
FILE "Track05.ogg" MP3
TRACK 05 AUDIO
INDEX 01 00:00:00
FILE "Track06.ogg" MP3
TRACK 06 AUDIO
INDEX 01 00:00:00
FILE "Track07.ogg" MP3
TRACK 07 AUDIO
INDEX 01 00:00:00
FILE "Track08.ogg" MP3
TRACK 08 AUDIO
INDEX 01 00:00:00
FILE "Track09.ogg" MP3
TRACK 09 AUDIO
INDEX 01 00:00:00
FILE "Track10.ogg" MP3
TRACK 10 AUDIO
INDEX 01 00:00:00
FILE "Track11.ogg" MP3
TRACK 11 AUDIO
INDEX 01 00:00:00
FILE "Track12.ogg" MP3
TRACK 12 AUDIO
INDEX 01 00:00:00
FILE "Track13.ogg" MP3
TRACK 13 AUDIO
INDEX 01 00:00:00
FILE "Track14.ogg" MP3
TRACK 14 AUDIO
INDEX 01 00:00:00
FILE "Track15.ogg" MP3
TRACK 15 AUDIO
INDEX 01 00:00:00

MSCDEX: Cannot open File bzw. can´t load file
Zitieren
#47
(19.03.2011, 18:44)Hirnkästchen schrieb: MSCDEX: Cannot open File bzw. can´t load file

Naja, eine der Dateien ist scheinbar nicht vorhanden, oder kann nicht geöffnet werden. Erst mal würde ich nachsehen, ob wirklich alles da ist, und dann die Musikstücke der Reihe nach anspielen. Fehler habe ich keine gefunden.
Zitieren
#48
Also ich finde den Fehler nicht, ich lad einmal meine .cue hoch vielleicht findest du was? Ich hab sie gezippt und stell sie rein. Falls dies Nicht Erlaubt sein Soll, bitte von einem der Admins löschen.
Edit: Bemerke grade dass dies wahrscheinlich nicht geht Attachment entfernt^^.
Zitieren
#49
1. Ist nicht schlimm. Ich probier's mit der Version oben.
2. Das Hochladen geht (theoretisch) und ist erlaubt.
3. Das klappt schon noch mit dem Ton.

Hast Du die OGGs nachgezählt? Oder hatte sich vielleicht eine MP3 dazwischen gemogelt? Den Fehler hatte ich auch schon. War immer eine OGG-Datei, die fehlte. :D

EDIT: Die CUE funktioniert. Hab's ausprobiert. Ich würde die OGGs noch mal kontrollieren. Ich bekomme Deine Fehlermeldung schon, wenn Groß- und Kleinschreibung nicht übereinstimmt.
Zitieren
#50
Also bei mir funktionierts noch immer nicht...:/. Hm wenn ich es wirklich dürfte lad ichs dir hoch, vielleicht kriegst du es ja hin? Wäre dir wirklich zu Dank verpflichtet (bin ich ja jetzt schon). Wiviele Tracks müssen es denn sein?


Angehängte Dateien
.7z   DSA1-Schicksalsklinge.7z (Größe: 321 Bytes / Downloads: 1)
Zitieren
#51
Die CUE ist korrekt und funktioniert bei mir. Du brauchst DSA1-Schicksalsklinge.iso und Track02.ogg bis Track15.ogg, die alle vorhanden und lesbar sein müssen. Die Fehlermeldung besagt ja auch, dass etwas mit einer Datei nicht stimmt. Eine fehlt, oder hat einen falschen Titel (Groß-/Kleinschreibung), oder das falsche Format, etc.
Hast Du mal probiert, ob das Ergebnis der Konvertierung nach OGG abgespielt werden kann?

Ich glaube, im Moment hakt es wirklich nur an einer Kleinigkeit.
Zitieren
#52
Hm die Tracks kann ich nicht abspielen, daran liegts wohl. Hab sie aber ordnungsgemäß konvertiert (nur bei Track 2 wollte er nicht, hab das von Hand gemacht). Mit Hand gehts normalerweise (hab so schon Riva umgeparkt). Komisch :/
Zitieren
#53
Ich lade mal meine CUE hoch.


Angehängte Dateien
.zip   dsa1.cue.zip (Größe: 369 Bytes / Downloads: 1)
Zitieren
#54
Danke Rabenaas. Ich hab dsa Problem fast vergessen, doch nun die Lösung. Ich habe eine Datei wirklich trotz richtigem Abspielen falsch konvertiert. Habe einen anderen Konverter benutzt (zuerst aber falsche Tonqualität eingestellt, klang scheußlich, aber nun perfekt :D ). Wenn ich dir 1000 + Geben könnte, würdest du sie erhalten.

Vielen Dank nochmal Rabenaas! :knuddel::up::cry::thx::jippie:
Zitieren
#55
Hey, schön dass es geklappt hat. :)
Zitieren




Benutzer, die gerade dieses Thema anschauen: 1 Gast/Gäste